[MagicStar] JK与六法全书 / JKと六法全書 EP05 [WEBDL] [1080p] [ABEMA-TV]【生】【解说放送版】【附日字】

发布时间:2024/05/19 10:39

分类:日剧

大小:1.4GB

简介


HD 1080p from Abema TV.
Japanese subtitles added.
Audio description.

General Unique ID                      : 207203165069853620167134090919354926504 (0x9BE1E0C5C95F9FF873FDF871AA7D85A8) Complete name                  : JK.to.Roppouzensho.EP05.1080p.ABEMA-TV.WEB-DL.AAC2.0.H.264.Audio.Description-MagicStar.mkv Format                         : Matroska Format version                 : Version 4 File size                      : 1.41 GiB Duration                       : 47 min 59 s Overall bit rate mode          : Variable Overall bit rate               : 4 200 kb/s Frame rate                     : 29.970 FPS Encoded date                   : 2024-05-18 15:15:25 UTC Writing application            : mkvmerge v50.0.0 ('Awakenings') 64-bit Writing library                : libebml v1.4.0 + libmatroska v1.6.2  Video ID                             : 1 Format                         : AVC Format/Info                    : Advanced Video Codec Format profile                 : [email protected] Format settings                : CABAC / 4 Ref Frames Format settings, CABAC         : Yes Format settings, Reference fra : 4 frames Codec ID                       : V_MPEG4/ISO/AVC Duration                       : 47 min 59 s Bit rate mode                  : Variable Bit rate                       : 4 004 kb/s Maximum bit rate               : 40.0 Mb/s Width                          : 1 920 pixels Height                         : 1 080 pixels Display aspect ratio           : 16:9 Frame rate mode                : Constant Frame rate                     : 29.970 (29970/1000) FPS Original frame rate            : 29.970 (30000/1001) FPS Color space                    : YUV Chroma subsampling             : 4:2:0 Bit depth                      : 8 bits Scan type                      : Progressive Bits/(Pixel*Frame)             : 0.064 Stream size                    : 1.34 GiB (95%) Default                        : Yes Forced                         : No  Audio ID                             : 2 Format                         : AAC LC Format/Info                    : Advanced Audio Codec Low Complexity Codec ID                       : A_AAC-2 Duration                       : 47 min 59 s Bit rate                       : 192 kb/s Channel(s)                     : 2 channels Channel layout                 : L R Sampling rate                  : 44.1 kHz Frame rate                     : 43.066 FPS (1024 SPF) Compression mode               : Lossy Stream size                    : 66.4 MiB (5%) Title                          : 日本語 [解説放送音声] Language                       : Japanese Default                        : Yes Forced                         : No

文件列表


  • [MagicStar] JK to Roppouzensho EP05 [WEBDL] [1080p] [ABEMA-TV] [JPN_SUB] [Audio Description]/JK.to.Roppouzensho.EP05.1080p.ABEMA-TV.WEB-DL.AAC2.0.H.264.Audio.Description-MagicStar.mkv - 1.4GB
  • [MagicStar] JK to Roppouzensho EP05 [WEBDL] [1080p] [ABEMA-TV] [JPN_SUB] [Audio Description]/JK.to.Roppouzensho.EP05.1080p.ABEMA-TV.WEB-DL.AAC2.0.H.264.Audio.Description-MagicStar.srt - 79.2KB